Thor online stream english

Služby

Poskytujeme prvotriedne služby v oblasti IT, komunikácií.

Benefity

Spoluprácou s nami si otvárate nové možnosti a výhody.

Šité na mieru

Všetky naše služby sú šité na mieru klienta.

Referencie

Naši klienti zlepšia svoj workflow a revenue.

Spojte sa s nami


Thor online stream english

Card Reader - Freegame.czCard Reader - Aplikace - PocketPC hry zdarma. . Thor Towers Dots and Boxes. ‬ autor:‪ Mobile Streamrychle a zbesile 5 - YouTube downloaderYouTube downloader - stahujte videa z YouTube do svého počítače nebo mobilu! . [Thai movies] My Name Is Love 2013 [HD] Full movie with English subtitles. Thor - český trailerCzTorrent - 1. CZ Free Torrent Tracker. YUV Chroma subsampling : 4:2:0 Bit depth : 8 bits Scan type : Progressive Bits/(Pixel*Frame) : 0.138 Stream size : 1.26 GiB (89%) Language : English Matrix coefficients : BT.709-5, BT.1361, IEC 61966-2-4 709, SMPTE RP177Thor: The Dark World (2013) Movie Online Free Full Movie...Watch Thor: The Dark World movie streaming without downloading. Thor: The Dark World is the best movie in 2013 that starring by Chris Hemsworth as Thor and Natalie Portman as Jane Foster.

CS Satellite forum

This is a discussion forum powered by vBulletin. . (Sky, Stream, YES, VideoGu**d, .... Bbc- hd thor Přejdi na poslední příspěvek. Use only english or german please.... Nyní je online 70 uživatelů. 20 registrovaných 50 anonymníchThor (2011) | stahuj z Warez AZbaseStáhni si Thor (2011) DVD5 Audio: 5.1 English Titulky: Czech, English Menu: Ano Bonus: Ne Velikost: 4,35 ...Thor (2011) - download, stahuj, mp3, film, hry, programy.... rate : 23.976 fps Color space : YUV Chroma subsampling : 4:2:0 Bit depth : 8 bits Scan type : Progressive Bits/(Pixel*Frame) : 0.318 Stream size : 1.30 GiB (70%) Title : Thor.2011.480p.BRrip.x264.CZ-7UN3RK0 Writing library. Stream.cz - vaše internetová televizeStream.cz - Vaše internetová televize. Zábava, bulvár, klipy, filmy a mnohem víc.. Thor (2011) Cele Filmy Online CZWarez fórum - hudba...téma - Thor (2011)Thor 2011 Ppvrip Iflix + CZ Titulky. Ripper ... Imagine Imdb Rating...7.8/10 Video Codec... Xvid Release Date...01/05/11 Audio Codec...MP3 Theatre Date...27/05/11 limited Audio Bitrate...128 Runtime...1h 44mn Subtitles...NIL Language...English Resolution... 720 x 304.

.: AB-Fórum :.

Diskusní fórum se zaměřením na satelitní příjem televizního vysílání. Rady k výběru vhodného přijímače, pomoc se správným nastavením přijímače. . Thor 3,5 ladění. MOI DVB-S2 Streaming Box. stream přes satelit do tv. johny english 1Kinotrip.cz | FacebookKinotrip.cz. 9,585 likes · 29 talking about this. Sledujte vaše oblíbené online filmy z pohodlí domova, bez omezení a zdarma - www.kinotrip.cz. Thor: Temný svět 2013 CZPercy Jackson: Moře nestvůr / Percy Jackson: Sea... (2013...www.ourphorum.com : Percy Jackson: Moře nestvůr / Percy Jackson: Sea... (2013) - Download zo serverov rapidshare. Stahuj zadarmo mp3, pozeraj online SK a CZ filmy a hraj hry.Thor Heyerdahl vyplul na voru Kon-Tiki k Polynésii před 66...Zpravodajský portál Českého rozhlasu vám přináší aktuální zprávy z domova i zahraničí. Zprávy jsou k dispozici také k poslechu online, včetně přímých přenosů klíčových sportovních událostí.. Obézní Číňané, rituály smrti a Thor Heyerdahl